<?xml version="1.0" standalone="no"?>
<!DOCTYPE svg PUBLIC "-//W3C//DTD SVG 1.1//EN" "http://www.w3.org/Graphics/SVG/1.1/DTD/svg11.dtd" >
<svg xmlns="http://www.w3.org/2000/svg">
<metadata>Generated by IcoMoon</metadata>
<defs>
<font id="template-24-sa" horiz-adv-x="1024">
<font-face units-per-em="1024" ascent="960" descent="-64" />
<missing-glyph horiz-adv-x="1024" />
<glyph unicode="&#x20;" horiz-adv-x="512" d="" />
<glyph unicode="&#x27;" glyph-name="pin" d="M740.011 840.832c-7.721 7.718-18.386 12.492-30.165 12.492s-22.445-4.774-30.165-12.492l-69.845-69.845c-7.718-7.721-12.492-18.386-12.492-30.165s4.774-22.445 12.492-30.165l16.384-16.384-36.48-36.437c-25.468 14.871-56.068 23.651-88.718 23.651-48.164 0-91.865-19.106-123.938-50.151l0.048 0.047-23.296-23.296c-7.718-7.721-12.492-18.386-12.492-30.165s4.774-22.445 12.492-30.165l109.483-109.44-365.483-365.483c-8.036-7.769-13.026-18.647-13.026-30.69 0-23.564 19.103-42.667 42.667-42.667 12.043 0 22.92 4.989 30.678 13.014l365.495 365.495 109.483-109.483c7.721-7.718 18.386-12.492 30.165-12.492s22.445 4.774 30.165 12.492l23.253 23.253c31.512 31.587 50.997 75.185 50.997 123.333 0 32.947-9.124 63.763-24.983 90.059l0.439-0.785 36.437 36.523 16.384-16.384c7.721-7.718 18.386-12.492 30.165-12.492s22.445 4.774 30.165 12.492l69.845 69.845c7.718 7.721 12.492 18.386 12.492 30.165s-4.774 22.445-12.492 30.165v0zM826.155 614.998l-16.384 16.469c-7.721 7.718-18.386 12.492-30.165 12.492s-22.445-4.774-30.165-12.492v0l-93.056-93.184c-7.718-7.721-12.492-18.386-12.492-30.165s4.774-22.445 12.492-30.165v0c16.079-16.121 26.021-38.369 26.021-62.94 0-21.123-7.348-40.53-19.627-55.804l0.135 0.173-218.197 218.155c15.196 11.763 34.524 18.855 55.509 18.855 24.487 0 46.718-9.657 63.093-25.371l-0.031 0.030c7.721-7.718 18.386-12.492 30.165-12.492s22.445 4.774 30.165 12.492v0l93.184 93.056c7.718 7.721 12.492 18.386 12.492 30.165s-4.774 22.445-12.492 30.165l-16.384 16.384 9.515 9.515 125.824-125.824z" />
<glyph unicode="&#x2c;" glyph-name="repetition" d="M42.667 426.667c0 0.060 0 0.131 0 0.202 0 259.206 210.128 469.333 469.333 469.333 93.099 0 179.868-27.107 252.842-73.86l-1.877 1.125 60.203 60.16c7.721 7.719 18.386 12.492 30.165 12.492 23.564 0 42.667-19.103 42.667-42.667 0-0.042 0-0.084 0-0.125v0.006-170.667c0-23.564-19.103-42.667-42.667-42.667v0h-170.667c-23.56 0.005-42.658 19.106-42.658 42.667 0 11.78 4.774 22.445 12.492 30.165l48.128 48.128c-54.321 31.264-119.45 49.705-188.885 49.705-211.936 0-383.744-171.808-383.744-383.744 0-0.090 0-0.179 0-0.269v0.014c0-23.564-19.103-42.667-42.667-42.667s-42.667 19.103-42.667 42.667v0zM938.667 469.334c-23.564 0-42.667-19.103-42.667-42.667v0c-0.243-211.98-172.021-383.758-383.977-384h-0.023c-0.202 0-0.442-0.001-0.681-0.001-69.112 0-133.912 18.463-189.736 50.726l1.831-0.976 48.085 48.085c7.718 7.721 12.492 18.386 12.492 30.165 0 23.561-19.097 42.661-42.657 42.667h-170.667c-23.564 0-42.667-19.103-42.667-42.667v0-170.667c0-0.003 0-0.007 0-0.011 0-17.668 10.739-32.828 26.046-39.308l0.28-0.105c4.787-2.051 10.357-3.243 16.205-3.243 0.048 0 0.096 0 0.143 0h-0.007c11.781 0.003 22.446 4.78 30.165 12.501v0l60.203 60.032c70.578-45.498 156.782-72.536 249.301-72.536 0.585 0 1.169 0.001 1.754 0.003h-0.090c259.079 0.315 469.018 210.255 469.333 469.303v0.030c0 23.564-19.103 42.667-42.667 42.667v0z" />
<glyph unicode="&#x2d;" glyph-name="canvas" d="M128 170.667h186.965l-54.485-108.928c-2.836-5.557-4.498-12.12-4.498-19.072 0-23.574 19.11-42.684 42.684-42.684 16.622 0 31.026 9.502 38.075 23.37l0.112 0.243 73.515 147.072h58.965v-85.333c0-23.564 19.103-42.667 42.667-42.667s42.667 19.103 42.667 42.667v0 85.333h58.965l73.515-147.072c7.161-14.111 21.564-23.612 38.187-23.612 23.574 0 42.684 19.11 42.684 42.684 0 6.952-1.662 13.515-4.61 19.315l0.112-0.243-54.485 108.928h186.965c23.564 0 42.667 19.103 42.667 42.667v0 512c0 23.564-19.103 42.667-42.667 42.667v0h-341.333v42.667c0 23.564-19.103 42.667-42.667 42.667s-42.667-19.103-42.667-42.667v0-42.667h-341.333c-23.564 0-42.667-19.103-42.667-42.667v0-512c0-23.564 19.103-42.667 42.667-42.667v0zM170.667 682.667h682.667v-426.667h-682.667zM384 469.334v-85.333c0-23.564-19.103-42.667-42.667-42.667s-42.667 19.103-42.667 42.667v0 85.333c0 23.564 19.103 42.667 42.667 42.667s42.667-19.103 42.667-42.667v0zM554.667 512v-128c0-23.564-19.103-42.667-42.667-42.667s-42.667 19.103-42.667 42.667v0 128c0 23.564 19.103 42.667 42.667 42.667s42.667-19.103 42.667-42.667v0zM725.333 554.667v-170.667c0-23.564-19.103-42.667-42.667-42.667s-42.667 19.103-42.667 42.667v0 170.667c0 23.564 19.103 42.667 42.667 42.667s42.667-19.103 42.667-42.667v0z" />
<glyph unicode="&#x2e;" glyph-name="time" d="M981.333 426.667c-0.088-259.139-210.182-469.179-469.333-469.179-114.544 0-219.505 41.034-300.983 109.204l0.738-0.601-10.923-10.923c-7.719-7.722-18.384-12.499-30.165-12.501h-0.001c-0.040 0-0.088 0-0.136 0-5.849 0-11.419 1.192-16.481 3.347l0.275-0.104c-15.586 6.586-26.325 21.745-26.325 39.413 0 0.004 0 0.008 0 0.011v-0.001 85.333c0 23.564 19.103 42.667 42.667 42.667v0h85.333c23.56-0.005 42.658-19.106 42.658-42.667 0-11.78-4.774-22.445-12.492-30.165l-13.739-13.739c65.041-52.273 148.614-83.899 239.573-83.899 212.077 0 384 171.923 384 384s-171.923 384-384 384c-212.077 0-384-171.923-384-384 0-0.069 0-0.139 0-0.208v0.011c0.005-27.185 2.801-53.713 8.117-79.319l-0.437 2.519c0.548-2.565 0.862-5.513 0.862-8.533 0-23.569-19.106-42.675-42.675-42.675-20.548 0-37.704 14.523-41.765 33.864l-0.049 0.278c-5.969 28.077-9.386 60.337-9.386 93.395 0 259.206 210.128 469.333 469.333 469.333 259.040 0 469.064-209.859 469.333-468.836v-0.026zM512 725.334c-23.564 0-42.667-19.103-42.667-42.667v0-256c0-23.564 19.103-42.667 42.667-42.667v0h213.333c23.564 0 42.667 19.103 42.667 42.667s-19.103 42.667-42.667 42.667v0h-170.667v213.333c0 23.564-19.103 42.667-42.667 42.667v0z" />
<glyph unicode="&#x2f;" glyph-name="search" d="M469.333 853.334c212.077 0 384-171.923 384-384 0-90.657-31.416-173.977-83.955-239.666l156.791-156.831c16.662-16.662 16.662-43.677 0-60.34-15.381-15.381-39.583-16.564-56.32-3.549l-4.020 3.549-156.831 156.791c-65.689-52.539-149.009-83.955-239.666-83.955-212.077 0-384 171.923-384 384s171.923 384 384 384zM469.333 768c-164.949 0-298.667-133.718-298.667-298.667s133.718-298.667 298.667-298.667c164.949 0 298.667 133.718 298.667 298.667s-133.718 298.667-298.667 298.667z" />
<glyph unicode="&#x31;" glyph-name="skill" d="M597.333 426.667c0-47.128-38.205-85.333-85.333-85.333s-85.333 38.205-85.333 85.333c0 47.128 38.205 85.333 85.333 85.333v0c47.128 0 85.333-38.205 85.333-85.333v0zM846.891 426.667c73.728-117.547 106.112-230.4 85.845-310.827-10.917-47.761-44.396-85.873-88.362-103.044l-0.982-0.338c-100.096-39.637-239.787 22.229-331.392 79.445-91.392-57.088-231.253-119.125-331.392-79.445-44.948 17.509-78.427 55.621-89.157 102.411l-0.187 0.97c-20.267 80.427 12.117 193.28 85.845 310.827-73.728 117.547-106.112 230.4-85.845 310.827 10.917 47.761 44.396 85.873 88.362 103.044l0.982 0.338c82.048 32.469 205.355-0.896 331.392-79.616 125.995 78.72 249.344 112.085 331.392 79.616 44.948-17.509 78.427-55.621 89.157-102.411l0.187-0.97c20.267-80.427-12.117-193.28-85.845-310.827zM231.211 503.254c9.643 12.501 18.944 25.003 29.397 37.419 52.268 61.734 109.31 116.448 171.523 164.828l2.557 1.914c-58.411 32.725-160.469 78.635-222.763 54.059-19.411-7.34-33.78-23.956-37.825-44.292l-0.063-0.38c-11.136-44.501 5.163-121.216 57.173-213.547zM435.2 145.536c-64.919 50.399-122.088 105.241-173.095 165.467l-1.369 1.658c-10.453 12.416-19.755 24.917-29.397 37.419-51.883-92.331-68.267-169.045-57.173-213.333 4.053-20.786 18.437-37.474 37.478-44.706l0.41-0.137c46.891-18.56 129.792 1.323 223.147 53.632zM512 194.816c70.185 51.026 131.276 107.931 184.847 171.391l1.265 1.537c17.067 20.011 32.043 39.637 45.952 58.923-13.909 19.285-29.056 38.912-45.952 58.923-54.844 64.971-115.933 121.862-183.16 170.836l-2.952 2.050c-70.179-51.023-131.268-107.914-184.849-171.351l-1.263-1.534c-17.067-20.011-32.043-39.637-45.952-58.923 13.909-19.285 29.056-38.912 45.952-58.923 54.846-64.986 115.935-121.89 183.161-170.879l2.951-2.049zM792.789 349.867c-9.643-12.501-18.944-25.003-29.397-37.419-52.408-61.799-109.618-116.572-172.010-164.985l-2.582-1.927c93.184-52.309 176.085-72.192 223.104-53.675 19.451 7.369 33.835 24.057 37.826 44.465l0.062 0.378c11.307 44.331-4.992 121.045-57.003 213.163zM849.963 716.8c-4.053 20.786-18.437 37.474-37.478 44.706l-0.41 0.137c-62.293 24.576-164.352-21.333-222.763-54.059 64.77-50.293 121.812-105.008 172.715-165.089l1.365-1.652c10.453-12.416 19.755-24.917 29.397-37.419 52.011 92.16 68.309 168.875 57.173 213.376z" />
<glyph unicode="&#x3b;" glyph-name="security" d="M494.676 849.606c9.454 4.2 20.054 4.801 29.835 1.8l4.813-1.8 384-170.615c15.444-6.862 25.233-22.096 25.343-38.691l-0.261-5.012-24.423-219.803c-12.484-112.352-73.795-213.263-167.211-276.141l-10.92-7.085-201.238-125.774c-12.298-7.686-27.536-8.54-40.487-2.562l-4.739 2.562-201.238 125.774c-95.861 59.913-160.261 158.881-176.476 270.314l-1.656 12.911-24.423 219.803c-1.866 16.796 6.349 32.934 20.622 41.4l4.46 2.303 384 170.615zM512 763.926l-338.147-150.242 20.975-188.776c9.645-86.801 56.76-164.821 128.599-213.791l9.948-6.496 178.625-111.64 178.625 111.64c74.060 46.287 123.976 122.546 137.001 208.506l1.546 11.78 20.975 188.776-338.147 150.242zM606.449 581.026l-140.953-175.515-51.326 51.326-4.020 3.549c-16.738 13.014-40.94 11.831-56.32-3.549-16.662-16.662-16.662-43.677 0-60.34l85.333-85.332 4.046-3.572c18.231-14.167 44.998-11.295 59.673 7.382l170.666 213.331 3.045 4.414c10.927 18.169 6.869 42.057-10.234 55.496-18.529 14.558-45.351 11.34-59.91-7.189z" />
<glyph unicode="&#x3d;" glyph-name="documents" d="M128-42.666h426.667c23.564 0 42.667 19.103 42.667 42.667v0 512c0 23.564-19.103 42.667-42.667 42.667v0h-426.667c-23.564 0-42.667-19.103-42.667-42.667v0-512c0-23.564 19.103-42.667 42.667-42.667v0zM170.667 469.334h341.333v-426.667h-341.333zM682.667 170.667v469.333h-384c-23.564 0-42.667 19.103-42.667 42.667s19.103 42.667 42.667 42.667v0h426.667c23.564 0 42.667-19.103 42.667-42.667v0-512c0-23.564-19.103-42.667-42.667-42.667s-42.667 19.103-42.667 42.667v0zM938.667 853.334v-554.667c0-23.564-19.103-42.667-42.667-42.667s-42.667 19.103-42.667 42.667v0 512h-384c-23.564 0-42.667 19.103-42.667 42.667s19.103 42.667 42.667 42.667v0h426.667c23.564 0 42.667-19.103 42.667-42.667v0z" />
<glyph unicode="&#x5b;" glyph-name="link" d="M938.667 624.299c0.001-0.225 0.001-0.491 0.001-0.757 0-63.063-25.64-120.138-67.064-161.367l-65.886-65.886c-7.665-7.41-18.12-11.977-29.641-11.977-23.564 0-42.667 19.103-42.667 42.667 0 11.521 4.567 21.976 11.989 29.653l65.865 65.865c25.994 26.009 42.070 61.933 42.070 101.611s-16.076 75.601-42.071 101.611l0.001-0.001c-26.373 25.182-62.182 40.68-101.611 40.68s-75.237-15.498-101.668-40.734l0.057 0.054-65.877-65.664c-7.769-8.036-18.647-13.026-30.69-13.026-23.564 0-42.667 19.103-42.667 42.667 0 12.043 4.989 22.92 13.014 30.678l65.889 65.889c41.444 41.428 98.69 67.051 161.92 67.051 126.485 0 229.023-102.53 229.035-229.012v-0.001zM152.405 67.072c41.446-41.441 98.7-67.072 161.941-67.072s120.495 25.631 161.942 67.072l65.877 65.877c7.41 7.665 11.977 18.12 11.977 29.641 0 23.564-19.103 42.667-42.667 42.667-11.521 0-21.976-4.567-29.653-11.989l-65.865-65.865c-26.373-25.182-62.182-40.68-101.611-40.68s-75.237 15.498-101.668 40.734l0.057-0.054c-25.994 26.009-42.070 61.933-42.070 101.611s16.076 75.601 42.071 101.611l65.877 65.877c8.036 7.769 13.026 18.647 13.026 30.69 0 23.564-19.103 42.667-42.667 42.667-12.043 0-22.92-4.989-30.678-13.014l-65.889-65.889c-41.441-41.446-67.072-98.7-67.072-161.941s25.631-120.495 67.072-161.942v0zM380.245 252.246c0.034 0 0.074 0 0.115 0 11.745 0 22.374 4.779 30.049 12.499l263.725 263.511c8.036 7.769 13.026 18.647 13.026 30.69 0 23.564-19.103 42.667-42.667 42.667-12.043 0-22.92-4.989-30.678-13.014l-263.735-263.521c-7.718-7.721-12.492-18.386-12.492-30.165 0-23.561 19.097-42.661 42.657-42.667h0.001z" />
<glyph unicode="&#x5c;" glyph-name="lock" d="M213.333-0h597.333c70.692 0 128 57.308 128 128v0 384c0 70.692-57.308 128-128 128v0h-85.333v42.667c0 117.821-95.513 213.333-213.333 213.333s-213.333-95.513-213.333-213.333v0-42.667h-85.333c-70.692 0-128-57.308-128-128v0-384c0-70.692 57.308-128 128-128v0zM384 682.667c0 70.692 57.308 128 128 128s128-57.308 128-128v0-42.667h-256zM170.667 512c0 23.564 19.103 42.667 42.667 42.667v0h597.333c23.564 0 42.667-19.103 42.667-42.667v0-384c0-23.564-19.103-42.667-42.667-42.667v0h-597.333c-23.564 0-42.667 19.103-42.667 42.667v0zM426.667 320c0 47.128 38.205 85.333 85.333 85.333s85.333-38.205 85.333-85.333c0-47.128-38.205-85.333-85.333-85.333v0c-47.128 0-85.333 38.205-85.333 85.333v0z" />
<glyph unicode="&#x5d;" glyph-name="swimming-pool" d="M981.333 142.208c0-0.015 0-0.034 0-0.052 0-102.080-82.752-184.832-184.832-184.832-57.097 0-108.148 25.89-142.052 66.571l-0.241 0.297c-34.115-40.973-85.138-66.862-142.208-66.862s-108.093 25.889-141.966 66.564l-0.242 0.298c-34.146-40.978-85.196-66.868-142.293-66.868-102.080 0-184.832 82.752-184.832 184.832 0 0.018 0 0.037 0 0.055v-0.003c0 23.564 19.103 42.667 42.667 42.667s42.667-19.103 42.667-42.667v0c1.156-54.105 45.289-97.523 99.563-97.523s98.407 43.418 99.561 97.415l0.002 0.108c0 23.564 19.103 42.667 42.667 42.667s42.667-19.103 42.667-42.667v0c0-54.975 44.566-99.541 99.541-99.541s99.541 44.566 99.541 99.541v0c0 23.564 19.103 42.667 42.667 42.667s42.667-19.103 42.667-42.667v0c1.156-54.105 45.289-97.523 99.563-97.523s98.407 43.418 99.561 97.415l0.002 0.108c0 23.564 19.103 42.667 42.667 42.667s42.667-19.103 42.667-42.667v0zM682.667 298.667v85.333h-341.333v-85.333c0-23.564-19.103-42.667-42.667-42.667s-42.667 19.103-42.667 42.667v0 384c0.146 117.762 95.571 213.188 213.319 213.333h0.014c23.564 0 42.667-19.103 42.667-42.667s-19.103-42.667-42.667-42.667v0c-70.692 0-128-57.308-128-128v0h341.333c0.146 117.762 95.571 213.188 213.319 213.333h0.014c23.564 0 42.667-19.103 42.667-42.667s-19.103-42.667-42.667-42.667v0c-70.692 0-128-57.308-128-128v0-384c0-23.564-19.103-42.667-42.667-42.667s-42.667 19.103-42.667 42.667v0zM682.667 469.334v128h-341.333v-128z" />
<glyph unicode="&#x60;" glyph-name="note" d="M42.667-0v768c0 23.564 19.103 42.667 42.667 42.667v0h426.667c23.564 0 42.667-19.103 42.667-42.667s-19.103-42.667-42.667-42.667v0h-384v-682.667h682.667v384c0 23.564 19.103 42.667 42.667 42.667s42.667-19.103 42.667-42.667v0-426.667c0-23.564-19.103-42.667-42.667-42.667v0h-768c-23.564 0-42.667 19.103-42.667 42.667v0zM481.835 570.624l312.875 312.875c7.721 7.718 18.386 12.492 30.165 12.492s22.445-4.774 30.165-12.492l113.792-113.749c7.731-7.723 12.514-18.396 12.514-30.187s-4.782-22.464-12.513-30.186v0l-312.917-312.875c-7.719-7.722-18.384-12.499-30.165-12.501h-113.75c-23.564 0-42.667 19.103-42.667 42.667v0 113.792c0.003 11.781 4.78 22.446 12.501 30.165v0zM554.667 469.334h53.419l270.251 270.208-53.461 53.461-270.208-270.251z" />
<glyph unicode="&#x61;" glyph-name="arrow-horizontal-sm" d="M755.499 183.168c-7.665-7.41-18.12-11.977-29.641-11.977-23.564 0-42.667 19.103-42.667 42.667 0 11.521 4.567 21.976 11.989 29.653l140.489 140.489h-750.336c-23.564 0-42.667 19.103-42.667 42.667s19.103 42.667 42.667 42.667v0h750.336l-140.501 140.501c-7.41 7.665-11.977 18.12-11.977 29.641 0 23.564 19.103 42.667 42.667 42.667 11.521 0 21.976-4.567 29.653-11.989l213.321-213.321c7.718-7.721 12.492-18.386 12.492-30.165s-4.774-22.445-12.492-30.165v0z" />
<glyph unicode="&#x62;" glyph-name="arrow-horizontal-lg" d="M627.499 55.168c-7.665-7.41-18.12-11.977-29.641-11.977-23.564 0-42.667 19.103-42.667 42.667 0 11.521 4.567 21.976 11.989 29.653l268.489 268.489h-750.336c-23.564 0-42.667 19.103-42.667 42.667s19.103 42.667 42.667 42.667v0h750.336l-268.501 268.501c-7.41 7.665-11.977 18.12-11.977 29.641 0 23.564 19.103 42.667 42.667 42.667 11.521 0 21.976-4.567 29.653-11.989l341.321-341.321c3.85-3.869 6.964-8.474 9.111-13.586l0.105-0.281c2.077-4.812 3.286-10.414 3.286-16.299s-1.208-11.487-3.39-16.573l0.104 0.274c-2.252-5.393-5.366-9.998-9.218-13.868l0.002 0.002z" />
<glyph unicode="&#x63;" glyph-name="arrow-vertical" d="M481.835 883.499c7.721 7.718 18.386 12.492 30.165 12.492s22.445-4.774 30.165-12.492l213.333-213.333c7.41-7.665 11.977-18.12 11.977-29.641 0-23.564-19.103-42.667-42.667-42.667-11.521 0-21.976 4.567-29.653 11.989l-140.489 140.489v-750.336c0-23.564-19.103-42.667-42.667-42.667s-42.667 19.103-42.667 42.667v0 750.336l-140.501-140.501c-7.665-7.41-18.12-11.977-29.641-11.977-23.564 0-42.667 19.103-42.667 42.667 0 11.521 4.567 21.976 11.989 29.653l-0.012-0.012z" />
<glyph unicode="&#x64;" glyph-name="chevron-horizontal" d="M341.333 42.667c10.923 0 21.845 4.181 30.165 12.501l341.333 341.333c16.683 16.683 16.683 43.648 0 60.331l-341.333 341.333c-16.683 16.683-43.648 16.683-60.331 0s-16.683-43.648 0-60.331l311.168-311.168-311.168-311.168c-16.683-16.683-16.683-43.648 0-60.331 8.32-8.32 19.243-12.501 30.165-12.501z" />
<glyph unicode="&#x65;" glyph-name="chevron-vertical" d="M896.011 256.011c0 10.923-4.181 21.845-12.501 30.165l-341.333 341.333c-16.683 16.683-43.648 16.683-60.331 0l-341.333-341.333c-16.683-16.683-16.683-43.648 0-60.331s43.648-16.683 60.331 0l311.168 311.168 311.168-311.168c16.683-16.683 43.648-16.683 60.331 0 8.32 8.32 12.501 19.243 12.501 30.165z" />
<glyph unicode="&#x66;" glyph-name="check" d="M422.83 192.177l-264.66 264.66c-16.662 16.662-43.677 16.662-60.34 0s-16.662-43.677 0-60.34l298.667-298.667c18.088-18.088 47.916-16.304 63.719 3.81l469.333 597.333c14.558 18.529 11.34 45.352-7.189 59.91s-45.352 11.34-59.91-7.189l-439.621-559.517z" />
<glyph unicode="&#x67;" glyph-name="close" d="M572.341 426.656l225.835 225.835c16.683 16.683 16.683 43.648 0 60.331s-43.648 16.683-60.331 0l-225.835-225.835-225.835 225.835c-16.683 16.683-43.648 16.683-60.331 0s-16.683-43.648 0-60.331l225.835-225.835-225.835-225.835c-16.683-16.683-16.683-43.648 0-60.331 8.32-8.32 19.243-12.501 30.165-12.501s21.845 4.181 30.165 12.501l225.835 225.835 225.835-225.835c8.32-8.32 19.243-12.501 30.165-12.501s21.845 4.181 30.165 12.501c16.683 16.683 16.683 43.648 0 60.331l-225.835 225.835z" />
<glyph unicode="&#x68;" glyph-name="cart" d="M128 810.667h85.333v-597.333c0-23.564 19.103-42.667 42.667-42.667v0h512c0.001 0 0.002 0 0.003 0 19.197 0 35.433 12.679 40.792 30.119l0.080 0.302 128 426.667c1.139 3.665 1.795 7.879 1.795 12.245 0 23.564-19.103 42.667-42.667 42.667-0.001 0-0.002 0-0.003 0h-597.333v170.667c0 23.564-19.103 42.667-42.667 42.667v0h-128c-23.564 0-42.667-19.103-42.667-42.667s19.103-42.667 42.667-42.667v0zM298.667 597.334h539.989l-102.4-341.333h-437.589zM277.333 128c35.346 0 64-28.654 64-64s-28.654-64-64-64c-35.346 0-64 28.654-64 64v0c0 35.346 28.654 64 64 64v0zM704 128c35.346 0 64-28.654 64-64s-28.654-64-64-64c-35.346 0-64 28.654-64 64v0c0 35.346 28.654 64 64 64v0z" />
<glyph unicode="&#x69;" glyph-name="info" d="M512 896c-259.206 0-469.333-210.128-469.333-469.333s210.128-469.333 469.333-469.333c259.206 0 469.333 210.128 469.333 469.333v0c-0.315 259.079-210.255 469.018-469.303 469.333h-0.030zM512 42.667c-212.077 0-384 171.923-384 384s171.923 384 384 384c212.077 0 384-171.923 384-384v0c-0.267-211.97-172.030-383.733-383.974-384h-0.026zM554.667 597.334h-85.333v85.333h85.333zM554.667 170.667h-85.333v341.333h85.333z" />
<glyph unicode="&#x6a;" glyph-name="success" d="M512 896c-259.206 0-469.333-210.128-469.333-469.333s210.128-469.333 469.333-469.333c259.206 0 469.333 210.128 469.333 469.333v0c-0.315 259.079-210.255 469.018-469.303 469.333h-0.030zM512 42.667c-212.077 0-384 171.923-384 384s171.923 384 384 384c212.077 0 384-171.923 384-384v0c-0.267-211.97-172.030-383.733-383.974-384h-0.026zM756.779 562.176c6.96-7.567 11.226-17.707 11.226-28.843 0-12.43-5.316-23.619-13.798-31.417l-0.031-0.028-256-234.667c-7.566-6.956-17.703-11.219-28.836-11.219-11.783 0-22.451 4.777-30.172 12.499l-128 128c-7.716 7.722-12.489 18.386-12.489 30.165 0 23.569 19.106 42.675 42.675 42.675 11.79 0 22.463-4.781 30.186-12.51l99.115-99.115 225.877 207.061c7.564 6.947 17.695 11.204 28.82 11.204 12.42 0 23.601-5.307 31.398-13.777l0.027-0.030z" />
<glyph unicode="&#x6b;" glyph-name="error" d="M512-42.666c259.206 0 469.333 210.128 469.333 469.333s-210.128 469.333-469.333 469.333c-259.206 0-469.333-210.128-469.333-469.333v0c0.315-259.079 210.255-469.018 469.303-469.333h0.030zM512 810.667c212.077 0 384-171.923 384-384s-171.923-384-384-384c-212.077 0-384 171.923-384 384v0c0.243 211.98 172.021 383.758 383.977 384h0.023zM353.835 328.832l97.835 97.835-97.835 97.835c-7.41 7.665-11.977 18.12-11.977 29.641 0 23.564 19.103 42.667 42.667 42.667 11.521 0 21.976-4.567 29.653-11.989l97.823-97.823 97.835 97.835c7.665 7.41 18.12 11.977 29.641 11.977 23.564 0 42.667-19.103 42.667-42.667 0-11.521-4.567-21.976-11.989-29.653l-97.823-97.823 97.835-97.835c8.036-7.769 13.026-18.647 13.026-30.69 0-23.564-19.103-42.667-42.667-42.667-12.043 0-22.92 4.989-30.678 13.014l-97.847 97.847-97.835-97.835c-7.665-7.41-18.12-11.977-29.641-11.977-23.564 0-42.667 19.103-42.667 42.667 0 11.521 4.567 21.976 11.989 29.653l-0.012-0.012z" />
<glyph unicode="&#x6c;" glyph-name="faq" d="M512 896c-259.206 0-469.333-210.128-469.333-469.333s210.128-469.333 469.333-469.333c259.206 0 469.333 210.128 469.333 469.333v0c-0.315 259.079-210.255 469.018-469.303 469.333h-0.030zM512 42.667c-212.077 0-384 171.923-384 384s171.923 384 384 384c212.077 0 384-171.923 384-384v0c-0.267-211.97-172.030-383.733-383.974-384h-0.026zM554.667 234.667v-85.333h-85.333v85.333zM682.667 533.334c0-0.091 0-0.199 0-0.307 0-53.645-24.85-101.486-63.667-132.64l-0.333-0.258c-31.56-24.621-53.762-59.952-61.159-100.453l-0.153-1.009h-86.699c8.089 68.641 43.15 127.815 94.122 167.52l0.555 0.416c19.586 15.77 32.012 39.745 32.012 66.623 0 29.661-15.133 55.787-38.099 71.080l-0.313 0.196c-13.536 8.964-30.154 14.301-48.018 14.301-13.551 0-26.385-3.071-37.844-8.556l0.529 0.228c-28.012-13.652-46.972-41.914-46.972-74.604 0-0.892 0.014-1.781 0.042-2.667l-0.003 0.129c0-23.564-19.103-42.667-42.667-42.667s-42.667 19.103-42.667 42.667v0 0c-0.020 0.961-0.031 2.093-0.031 3.228 0 67.56 40.17 125.738 97.928 151.952l1.047 0.425c20.786 9.525 45.093 15.079 70.697 15.079 35.451 0 68.416-10.647 95.87-28.917l-0.636 0.398c46.311-30.98 76.407-83.052 76.459-142.157v-0.008z" />
<glyph unicode="&#x6d;" glyph-name="warning" d="M512 896c-259.206 0-469.333-210.128-469.333-469.333s210.128-469.333 469.333-469.333c259.206 0 469.333 210.128 469.333 469.333v0c-0.315 259.079-210.255 469.018-469.303 469.333h-0.030zM512 42.667c-212.077 0-384 171.923-384 384s171.923 384 384 384c212.077 0 384-171.923 384-384v0c-0.267-211.97-172.030-383.733-383.974-384h-0.026zM554.667 170.667h-85.333v85.333h85.333zM554.667 341.334h-85.333v341.333h85.333z" />
<glyph unicode="&#x6e;" glyph-name="clock" d="M512 896c-259.206 0-469.333-210.128-469.333-469.333s210.128-469.333 469.333-469.333c259.206 0 469.333 210.128 469.333 469.333v0c-0.315 259.079-210.255 469.018-469.303 469.333h-0.030zM512 42.667c-212.077 0-384 171.923-384 384s171.923 384 384 384c212.077 0 384-171.923 384-384v0c-0.243-211.98-172.021-383.758-383.977-384h-0.023zM768 426.667c0-23.564-19.103-42.667-42.667-42.667v0h-213.333c-23.564 0-42.667 19.103-42.667 42.667v0 256c0 23.564 19.103 42.667 42.667 42.667s42.667-19.103 42.667-42.667v0-213.333h170.667c23.564 0 42.667-19.103 42.667-42.667v0z" />
<glyph unicode="&#x6f;" glyph-name="date" d="M128-0h768c23.564 0 42.667 19.103 42.667 42.667v0 640c0 23.564-19.103 42.667-42.667 42.667v0h-170.667v85.333c0 23.564-19.103 42.667-42.667 42.667s-42.667-19.103-42.667-42.667v0-85.333h-256v85.333c0 23.564-19.103 42.667-42.667 42.667s-42.667-19.103-42.667-42.667v0-85.333h-170.667c-23.564 0-42.667-19.103-42.667-42.667v0-640c0-23.564 19.103-42.667 42.667-42.667v0zM170.667 640h682.667v-128h-682.667zM170.667 426.667h682.667v-341.333h-682.667z" />
<glyph unicode="&#x70;" glyph-name="address" d="M895.659 512.854c0.001 0.304 0.001 0.664 0.001 1.024 0 211.866-171.751 383.617-383.617 383.617-211.506 0-383.034-171.168-383.616-382.538v-0.055c-0.011-1.348-0.017-2.942-0.017-4.537 0-245.936 149.162-457.034 361.953-547.76l3.888-1.473c5.169-2.398 11.219-3.798 17.597-3.798 0.054 0 0.107 0 0.161 0h-0.008c0.023 0 0.050 0 0.076 0 6.451 0 12.572 1.415 18.069 3.951l-0.268-0.111c216.647 92.187 365.787 303.254 365.787 549.154 0 0.888-0.002 1.776-0.006 2.663v-0.137zM512 46.934c-177.188 79.426-298.384 254.254-298.384 457.389 0 2.7 0.021 5.394 0.064 8.084l-0.005-0.406c0 164.761 133.565 298.325 298.325 298.325s298.325-133.565 298.325-298.325v0c0-0.896 0-1.92 0-2.773 0.018-1.57 0.028-3.424 0.028-5.28 0-203.025-121.199-377.742-295.192-455.747l-3.161-1.267zM597.333 512c0-47.128-38.205-85.333-85.333-85.333s-85.333 38.205-85.333 85.333c0 47.128 38.205 85.333 85.333 85.333v0c47.128 0 85.333-38.205 85.333-85.333v0z" />
<glyph unicode="&#x71;" glyph-name="mail" d="M938.667 810.667h-853.333c-23.564 0-42.667-19.103-42.667-42.667v0-682.667c0-23.564 19.103-42.667 42.667-42.667v0h853.333c23.564 0 42.667 19.103 42.667 42.667v0 682.667c0 23.564-19.103 42.667-42.667 42.667v0zM896 128h-768v597.333h768zM176.299 618.667c7.501 12.899 21.258 21.433 37.008 21.433 7.866 0 15.234-2.128 21.561-5.841l-0.201 0.109 277.333-158.549 277.333 158.549c6.121 3.587 13.48 5.705 21.333 5.705 23.604 0 42.74-19.135 42.74-42.74 0-15.751-8.521-29.512-21.204-36.925l-0.202-0.109-298.667-170.667c-6.079-3.533-13.377-5.618-21.163-5.618s-15.084 2.085-21.367 5.728l0.205-0.11-298.667 170.667c-13.043 7.466-21.69 21.3-21.69 37.154 0 7.806 2.096 15.123 5.757 21.418l-0.109-0.204zM371.499 371.67c7.718-7.721 12.492-18.386 12.492-30.165s-4.774-22.445-12.492-30.165l-85.333-85.333c-7.665-7.41-18.12-11.977-29.641-11.977-23.564 0-42.667 19.103-42.667 42.667 0 11.521 4.567 21.976 11.989 29.653l85.321 85.321c7.712 7.668 18.343 12.407 30.080 12.407 11.822 0 22.522-4.808 30.249-12.576l0.002-0.002zM798.165 286.336c8.036-7.769 13.026-18.647 13.026-30.69 0-23.564-19.103-42.667-42.667-42.667-12.043 0-22.92 4.989-30.678 13.014l-85.345 85.345c-7.41 7.665-11.977 18.12-11.977 29.641 0 23.564 19.103 42.667 42.667 42.667 11.521 0 21.976-4.567 29.653-11.989l-0.012 0.012z" />
<glyph unicode="&#x72;" glyph-name="mobile" d="M725.333-42.666c47.128 0 85.333 38.205 85.333 85.333v0 768c0 47.128-38.205 85.333-85.333 85.333v0h-426.667c-47.128 0-85.333-38.205-85.333-85.333v0-768c0-47.128 38.205-85.333 85.333-85.333v0zM298.667 810.667h426.667v-768h-426.667zM554.667 128c0-23.564-19.103-42.667-42.667-42.667s-42.667 19.103-42.667 42.667c0 23.564 19.103 42.667 42.667 42.667v0c23.564 0 42.667-19.103 42.667-42.667v0z" />
<glyph unicode="&#x73;" glyph-name="phone" d="M54.485 560.726c56.704-225.28 366.336-535.125 591.573-591.573 27.902-7.368 59.946-11.629 92.976-11.691h0.038c62.562 0.030 121.428 15.823 172.853 43.621l-1.93-0.954c42.683 22.635 71.261 66.788 71.261 117.616 0 36.542-14.771 69.634-38.668 93.631l-88.998 88.998c-24.019 24.011-57.196 38.861-93.842 38.861-19.208 0-37.464-4.080-53.947-11.421l0.844 0.336c-24.306-10.648-45.099-24.825-62.799-42.148l0.037 0.036c-7.595-7.552-21.589-8.747-41.685-3.285-106.779 44.192-189.944 127.344-233.116 231.291l-1.038 2.821c-5.376 20.096-4.267 34.133 3.328 41.685 17.306 17.688 31.498 38.508 41.632 61.518l0.522 1.33c6.984 15.62 11.051 33.852 11.051 53.033 0 36.634-14.836 69.804-38.828 93.827l-89.002 88.959c-23.72 24.002-56.64 38.868-93.032 38.868-7.148 0-14.162-0.573-20.998-1.677l0.75 0.1c-42.92-6.473-78.571-32.784-97.786-69.126l-0.347-0.72c-26.888-49.694-42.693-108.785-42.693-171.567 0-32.831 4.322-64.653 12.428-94.927l-0.583 2.559zM160.981 785.067c7.051 13.297 19.866 22.73 35.023 25.013l0.262 0.032c2.107 0.353 4.534 0.555 7.009 0.555 0.041 0 0.082 0 0.123 0h-0.006c0.005 0 0.010 0 0.015 0 12.911 0 24.59-5.27 33.005-13.777l88.964-88.964c8.61-8.512 13.943-20.324 13.943-33.382 0-6.637-1.378-12.953-3.863-18.676l0.117 0.303c-6.173-14.504-14.44-26.929-24.579-37.552l0.046 0.048c-20.166-21.445-32.557-50.404-32.557-82.257 0-14.889 2.707-29.146 7.657-42.305l-0.273 0.828c30.805-115.2 179.413-263.637 294.4-294.4 12.289-4.634 26.494-7.317 41.325-7.317 32.059 0 61.19 12.534 82.761 32.968l-0.055-0.052c10.519 10.086 22.87 18.363 36.488 24.266l0.802 0.31c5.428 2.376 11.754 3.758 18.403 3.758 13.064 0 24.881-5.338 33.39-13.951l88.965-88.965c8.512-8.425 13.782-20.111 13.782-33.027 0-2.529-0.202-5.011-0.591-7.431l0.035 0.266c-2.359-15.435-11.856-28.243-24.955-35.118l-0.261-0.125c-38.074-20.861-83.42-33.131-131.632-33.131-25.504 0-50.206 3.434-73.669 9.864l1.951-0.456c-193.877 48.256-480.981 335.36-529.792 529.152-5.961 21.51-9.386 46.21-9.386 71.71 0 48.274 12.277 93.681 33.88 133.268l-0.728-1.457z" />
<glyph unicode="&#x74;" glyph-name="quote-1" d="M768 85.334c94.257 0 170.667 76.41 170.667 170.667s-76.41 170.667-170.667 170.667v0c-31.518-0.191-60.942-8.985-86.093-24.147l0.76 0.425v66.389c0.146 117.762 95.571 213.188 213.319 213.333h0.014c23.564 0 42.667 19.103 42.667 42.667s-19.103 42.667-42.667 42.667v0c-164.871-0.194-298.473-133.796-298.667-298.648v-213.351c0-94.257 76.41-170.667 170.667-170.667v0zM768 341.334c47.128 0 85.333-38.205 85.333-85.333s-38.205-85.333-85.333-85.333c-47.128 0-85.333 38.205-85.333 85.333v0c0 47.128 38.205 85.333 85.333 85.333v0zM384 682.667c23.564 0 42.667 19.103 42.667 42.667s-19.103 42.667-42.667 42.667v0c-164.871-0.194-298.473-133.796-298.667-298.648v-213.351c0-94.257 76.41-170.667 170.667-170.667s170.667 76.41 170.667 170.667c0 94.257-76.41 170.667-170.667 170.667v0c-31.518-0.191-60.942-8.985-86.093-24.147l0.76 0.425v66.389c0.146 117.762 95.571 213.188 213.319 213.333h0.014zM256 341.334c47.128 0 85.333-38.205 85.333-85.333s-38.205-85.333-85.333-85.333c-47.128 0-85.333 38.205-85.333 85.333v0c0 47.128 38.205 85.333 85.333 85.333v0z" />
<glyph unicode="&#x75;" glyph-name="quote-2" d="M128 768h298.667c21.881 0 39.915-16.471 42.38-37.691l0.287-4.976v-341.333c0-3.057-0.329-6.101-0.977-9.080l-1.212-4.413-85.333-256c-5.28-15.839-19.234-26.991-35.526-28.887l-4.951-0.287h-170.667c-27.409 0-47.238 25.273-41.798 51.28l1.32 4.879 66.614 199.841h-68.803c-21.881 0-39.915 16.471-42.38 37.691l-0.287 4.976v341.333c0 21.881 16.471 39.915 37.691 42.38l4.976 0.287zM597.333 768h298.667c21.881 0 39.915-16.471 42.38-37.691l0.287-4.976v-341.333c0-3.057-0.329-6.101-0.977-9.080l-1.212-4.413-85.333-256c-5.28-15.839-19.234-26.991-35.526-28.887l-4.951-0.287h-170.667c-27.409 0-47.238 25.273-41.798 51.28l1.32 4.879 66.614 199.841h-68.803c-21.881 0-39.915 16.471-42.38 37.691l-0.287 4.976v341.333c0 21.881 16.471 39.915 37.691 42.38l4.976 0.287zM384 682.667h-213.333v-256h85.333c27.409 0 47.238-25.273 41.798-51.28l-1.32-4.879-66.614-199.841h80.717l73.419 220.257v291.743zM853.333 682.667h-213.333v-256h85.333c27.409 0 47.238-25.273 41.798-51.28l-1.32-4.879-66.614-199.841h80.717l73.419 220.257v291.743z" />
<glyph unicode="&#x76;" glyph-name="video" d="M322.347 803.499c-6.653 4.494-14.854 7.174-23.68 7.174-23.564 0-42.667-19.103-42.667-42.667 0-0.002 0-0.005 0-0.007v0-682.667c0-0.002 0-0.004 0-0.006 0-23.564 19.103-42.667 42.667-42.667 8.826 0 17.027 2.68 23.832 7.271l-0.152-0.096 512 341.333c11.52 7.761 18.996 20.757 18.996 35.499s-7.476 27.738-18.845 35.402l-0.152 0.096zM341.333 165.078v523.179l392.533-261.589z" />
<glyph unicode="&#x77;" glyph-name="group" d="M512 93.946v0l-364.632 242.743c-19.023 9.72-42.731 3.851-54.869-14.355-13.071-19.607-7.773-46.097 11.834-59.168l384-256 4.926-2.831c13.501-6.606 29.669-5.662 42.408 2.831l387.981 258.999c16.289 13.821 19.99 37.963 7.853 56.169-13.071 19.607-39.561 24.905-59.168 11.834l-360.333-240.222zM535.667 846.168l384-256c25.333-16.888 25.333-54.113 0-71.002l-384-256c-14.332-9.554-33.003-9.554-47.334 0l-384 256c-25.333 16.888-25.333 54.113 0 71.002l384 256c14.332 9.554 33.003 9.554 47.334 0zM512 759.388l-307.082-204.721 307.082-204.721 307.082 204.721-307.082 204.721z" />
<glyph unicode="&#x78;" glyph-name="menu" d="M896 213.334h-768c-23.564 0-42.667-19.103-42.667-42.667s19.103-42.667 42.667-42.667h768c23.564 0 42.667 19.103 42.667 42.667s-19.103 42.667-42.667 42.667zM896 469.334h-768c-23.564 0-42.667-19.103-42.667-42.667s19.103-42.667 42.667-42.667h768c23.564 0 42.667 19.103 42.667 42.667s-19.103 42.667-42.667 42.667zM896 725.334h-768c-23.564 0-42.667-19.103-42.667-42.667s19.103-42.667 42.667-42.667h768c23.564 0 42.667 19.103 42.667 42.667s-19.103 42.667-42.667 42.667z" />
<glyph unicode="&#x79;" glyph-name="flag" d="M170.667 896c-23.564 0-42.667-19.103-42.667-42.667v0-853.333c0-23.564 19.103-42.667 42.667-42.667s42.667 19.103 42.667 42.667v0 298.667h256v-85.333c0-23.564 19.103-42.667 42.667-42.667v0h341.333c23.564 0 42.667 19.103 42.667 42.667v0 469.333c0 23.564-19.103 42.667-42.667 42.667v0h-298.667v42.667c0 23.564-19.103 42.667-42.667 42.667v0h-298.667v42.667c0 23.564-19.103 42.667-42.667 42.667v0zM554.667 341.334v298.667h256v-384h-256zM469.333 725.334v-341.333h-256v341.333z" />
<glyph unicode="&#x7a;" glyph-name="students" d="M841.813 227.712c20.325 25.001 32.69 57.185 32.853 92.252v0.036c0 82.475-66.859 149.333-149.333 149.333s-149.333-66.859-149.333-149.333v0c0.163-35.103 12.528-67.287 33.068-92.561l-0.215 0.273c-39.684-20.653-72.305-49.954-96.27-85.565l-0.584-0.921c-24.549 36.531-57.169 65.832-95.43 85.809l-1.423 0.676c20.325 25.001 32.69 57.185 32.853 92.252v0.036c0 82.475-66.859 149.333-149.333 149.333s-149.333-66.859-149.333-149.333v0c0.163-35.103 12.528-67.287 33.068-92.561l-0.215 0.273c-83.4-43.283-139.419-128.944-139.52-227.698v-0.014c0-23.564 19.103-42.667 42.667-42.667v0h853.333c23.564 0 42.667 19.103 42.667 42.667v0c-0.101 98.768-56.12 184.429-138.099 227.040l-1.421 0.672zM298.667 384c35.346 0 64-28.654 64-64s-28.654-64-64-64c-35.346 0-64 28.654-64 64v0c0 35.346 28.654 64 64 64v0zM133.376 42.667c19.566 74.281 86.135 128.168 165.291 128.168s145.725-53.888 165.024-126.978l0.267-1.19zM725.333 384c35.346 0 64-28.654 64-64s-28.654-64-64-64c-35.346 0-64 28.654-64 64v0c0 35.346 28.654 64 64 64v0zM560.085 42.667c19.624 74.197 86.153 128.003 165.248 128.003s145.624-53.806 164.98-126.812l0.268-1.191zM307.2 580.267c-5.327-7.042-8.533-15.947-8.533-25.6 0-23.564 19.103-42.667 42.667-42.667 13.911 0 26.267 6.657 34.056 16.959l0.078 0.107c31.467 41.638 80.89 68.267 136.533 68.267s105.066-26.629 136.222-67.837l0.311-0.429c7.867-10.41 20.223-17.067 34.133-17.067 23.564 0 42.667 19.103 42.667 42.667 0 9.653-3.206 18.558-8.611 25.707l0.078-0.107c-23.341 30.934-52.79 55.977-86.691 73.653l-1.416 0.672c20.215 24.964 32.501 57.071 32.64 92.044v0.031c0 82.475-66.859 149.333-149.333 149.333s-149.333-66.859-149.333-149.333v0c0.15-34.988 12.434-67.079 32.858-92.31l-0.218 0.278c-35.324-18.352-64.775-43.411-87.638-73.719l-0.469-0.649zM512 810.667c35.346 0 64-28.654 64-64s-28.654-64-64-64c-35.346 0-64 28.654-64 64v0c0 35.346 28.654 64 64 64v0z" />
</font>
</defs>
</svg>
